#TITLE:Smile Boy;
#SUBTITLE:Expi3nze & sdo;
#ARTIST:Lee Seung Ki;
#TITLETRANSLIT:;
#SUBTITLETRANSLIT:;
#ARTISTTRANSLIT:;
#CREDIT:;
#BANNER:bn.png;
#BACKGROUND:bg.png;
#LYRICSPATH:;
#CDTITLE:cdtitle.png;
#MUSIC:Smile Boy.mp3;
#OFFSET:-0.397;
#SAMPLESTART:74.147;
#SAMPLELENGTH:28.750;
#SELECTABLE:YES;
#BPMS:0.000=144.000;
#STOPS:;
#BGCHANGES:;
// cache tags:
#FIRSTBEAT:0.000;
#LASTBEAT:303.000;
#SONGFILENAME:Songs/SDO pack 1/Smile Boy (Lee Seung Ki)/Smile Boy.sm;
#HASMUSIC:1;
#HASBANNER:1;
#MUSICLENGTH:128.995;
// end cache tags

//---------------dance-single - ----------------
#NOTES:
     dance-single:
     :
     Hard:
     22:
     1.000,1.000,1.000,0.884,0.147,584.000,296.000,114.000,0.000,171.000:
0100
0000
0011
1100
0000
0010
0101
0010
,
1000
0100
1001
1001
0010
0100
0011
0000
,
0100
0000
1010
0101
0010
0100
0011
1000
,
0200
0000
0001
0000
1000
0000
0001
0000
1020
0000
0001
0001
1000
1000
0001
0001
,
1330
0010
1100
0011
1000
0011
0100
0011
,
0011
1100
0011
0101
0011
2100
0010
3012
,
0100
0010
1003
0010
0001
1100
0011
0100
,
0011
1100
0101
1010
0011
2100
0001
3012
,
0100
1000
0103
1010
0011
2010
0001
3011
,
0100
1001
0010
1000
0101
1010
0001
1200
,
0010
0321
1000
0031
0100
1010
0101
1000
,
0011
0000
1200
0000
0001
0000
0321
0000
0000
0000
1230
0001
0001
1000
0321
0001
,
1000
0031
0011
1100
0011
1200
0001
0312
,
1000
1013
0101
1010
0012
0100
1013
0201
,
0001
0010
1000
0001
1300
0101
1010
0012
,
0100
2103
0010
3012
0100
2103
0010
0100
,
3012
0100
0010
1103
0110
0011
0100
2010
,
0001
3100
0001
0110
0011
2100
0010
3012
,
0100
0010
1000
0013
0101
1010
0001
0011
,
1000
0000
1200
0000
0010
0000
0312
0000
0100
0000
2103
0001
0001
0100
3221
0001
,
1000
0001
1000
0001
1000
1331
0110
2002
,
0010
0100
0010
0100
0010
3113
1001
0220
,
0001
0000
1001
0000
1000
0001
1001
0000
,
0001
1000
1001
1001
0000
1000
1331
1000
,
0012
0100
1100
0010
0010
1103
0011
2100
,
0001
0010
0011
0010
0100
3011
1100
0220
,
1000
0000
0001
0000
1001
0000
1000
0000
1000
0001
1000
1000
0001
1000
0001
0001
,
1001
0000
0330
0000
0100
0001
1010
0100
,
0001
0001
1000
0011
1100
0110
0011
0011
,
0100
1100
0010
0011
0100
1100
0010
0011
,
0100
1000
0011
0100
0001
1010
0101
1100
,
0010
0101
1010
0011
1100
0012
0100
1203
,
0001
0311
1000
1100
0011
0110
1001
0210
,
0001
0312
1000
0123
0001
2031
0010
3210
,
0001
0010
0301
0100
0001
1010
0101
0102
,
1000
2013
0100
3012
0010
2103
0010
3012
,
1100
0003
2100
0011
3020
0001
2130
0000
,
3012
0000
1203
0011
0320
1100
2031
0000
,
3012
0000
0113
1200
0000
2301
0011
3012
,
0110
0000
2100
0110
3020
1100
1233
0000
,
0312
0000
2100
0110
3020
1100
1230
0000
,
2313
0000
3210
0011
0320
1100
2130
0000
,
3220
0000
1001
1331
0220
0000
1001
1001
,
2332
0000
0000
0000
0110
0000
3113
0000
1220
0001
1000
1000
0001
1000
0001
0001
,
1331
0001
1010
0101
0010
0011
0100
1100
,
0001
0011
1100
0110
1001
0110
0010
0012
,
0100
1000
0103
1000
0001
0110
1001
1001
,
0100
0110
1001
1001
0110
0110
1000
0012
,
0100
0010
1003
1100
0011
2100
0001
3021
,
0100
1230
0001
1301
0011
1002
0010
2103
,
0010
3021
0100
0130
1000
0101
1010
0102
,
0010
0000
1203
0010
0010
0010
0312
0000
0000
0000
2103
0001
0001
0001
3110
0001
,
1100
0010
1100
0101
1010
0011
0100
1100
,
0010
0011
1010
0101
1200
0001
0311
2002
,
0010
0100
0010
0100
0010
3113
1010
0201
,
1000
0312
0100
2013
0010
3201
0001
1320
,
0001
0130
0001
1100
0011
1200
0010
1302
,
0010
1003
0010
0101
1010
0102
1000
2203
,
0001
0010
3301
0010
1100
0021
0100
2130
,
0001
3102
0100
1013
0100
0102
1000
0113
,
1000
0000
0001
0001
1100
0000
0011
0000
0100
0000
0011
0000
1100
0000
0001
0000
,
1100
0000
0001
0001
1100
0000
0110
0000
0100
0000
0101
0000
1010
0000
0001
0000
,
0011
0000
1000
1000
0011
0000
0101
0000
0001
0000
1100
0000
0011
0000
0100
0000
,
1100
0000
0001
0001
1100
0000
0101
0000
0010
0000
0101
0000
0110
0000
1000
0000
,
0011
0000
0100
0100
0011
0000
1100
0000
0010
0000
1100
0000
0011
0000
0001
0000
,
0011
0000
1000
1000
0011
0000
1100
0000
0001
0000
1100
0000
1010
0000
0002
0000
,
0110
0000
1000
1000
0110
0000
0110
0000
0010
0000
1100
0000
0110
0000
0100
0000
,
1100
0000
0010
0010
0100
0010
2010
0000
0100
0010
0100
0100
3013
0100
0010
0010
,
1101
0000
1110
0000
0100
1010
0101
2010
,
0100
0010
3011
0010
0010
1100
0110
0201
,
1000
0010
1000
0001
1000
0001
1000
0010
,
0001
0000
1000
0000
0010
0000
0001
0000
1010
0001
0001
1000
1000
1000
0021
0000
,
0000
0000
0000
0300
,
0000
0000
0000
0000
,
0000
0000
0000
0000
,
0000
0000
0000
0030
,
0000
0000
0000
0000
,
0000
0000
0000
0000
;
